返回列表 发新帖

[BD-Rip] [BT下载]风暴之眼 The.Eye.Of.The.Storm.2011.1080p.BluRay.x264-aAF 8.74G

[复制链接]

发表在  2016-8-4 19:08:24 | 显示全部楼层 | 阅读模式
-->
◎译  名 风暴之眼
◎片  名 The Eye of the Storm
◎年  代 2011
◎国  家 澳大利亚
◎类  别 剧情
◎语  言 英语
◎上映日期 2011-07-23
◎IMDb评分  6.3/10 from 1,267 users
◎IMDb链接  http://www.imdb.com/title/tt1600207/
◎豆瓣评分 7.2/10 from 58 users
◎豆瓣链接 https://movie.douban.com/subject/4815626/
◎BT之家整理 http://www.btbbt.cc
◎片  长 119分钟
◎导  演 Fred Schepisi
◎主  演 杰弗里·拉什 Geoffrey Rush
      夏洛特·兰普林 Charlotte Rampling
      朱迪·戴维斯 Judy Davis


◎简  介


  这是部澳大利亚出品的片子。根据诺贝尔文学奖获得者Patrick White的小说THE EYE OF THE STORM改编。
  故事讲的是当Elizabeth Hunter (Charlotte Rampling)中风后,他的儿子(Geoffrey Rush) 和女儿( Judy Davis)从各地飞回家照看她,由此使家庭中的原有的摩擦和对彼此的怨恨又浮出水面,在此期间,他们需要面对自己,面对家人以及如何更好的继续生活下去等问题。


Video
ID                                       : 1
Format                                   : AVC
Format/Info                              : Advanced Video Codec
Format profile                           : High@L4.1
Format settings, CABAC                   : Yes
Format settings, ReFrames                : 5 frames
Codec ID                                 : V_MPEG4/ISO/AVC
Duration                                 : 1h 59mn
Bit rate                                 : 8 995 Kbps
Width                                    : 1 920 pixels
Height                                   : 800 pixels
Display aspect ratio                     : 2.40:1
Frame rate mode                          : Constant
Frame rate                               : 24.000 fps
Color space                              : YUV
Chroma subsampling                       : 4:2:0
Bit depth                                : 8 bits
Scan type                                : Progressive
Bits/(Pixel*Frame)                       : 0.244
Stream size                              : 7.31 GiB (84%)
Writing library                          : x264 core 124 r2197 69a0443
Encoding settings                        : cabac=1 / ref=5 / deblock=1:0:0 / analyse=0x3:0x133 / me=umh / subme=8 / psy=1 / psy_rd=1.00:0.00 / mixed_ref=1 / me_range=16 / chroma_me=1 / trellis=1 / 8x8dct=1 / cqm=0 / deadzone=21,11 / fast_pskip=0 / chroma_qp_offset=-2 / threads=12 / sliced_threads=0 / nr=0 / decimate=1 / interlaced=0 / bluray_compat=0 / constrained_intra=0 / bframes=3 / b_pyramid=2 / b_adapt=1 / b_bias=0 / direct=1 / weightb=1 / open_gop=0 / weightp=2 / keyint=250 / keyint_min=25 / scenecut=40 / intra_refresh=0 / rc_lookahead=40 / rc=2pass / mbtree=1 / bitrate=8995 / ratetol=1.0 / qcomp=0.60 / qpmin=0 / qpmax=69 / qpstep=4 / cplxblur=20.0 / qblur=0.5 / ip_ratio=1.40 / aq=1:1.00
Language                                 : English
Default                                  : Yes
Forced                                   : No

Audio
ID                                       : 2
Format                                   : DTS
Format/Info                              : Digital Theater Systems
Mode                                     : 16
Format settings, Endianness              : Big
Codec ID                                 : A_DTS
Duration                                 : 1h 59mn
Bit rate mode                            : Constant
Bit rate                                 : 1 509 Kbps
Channel(s)                               : 6 channels
Channel positions                        : Front: L C R, Side: L R, LFE
Sampling rate                            : 48.0 KHz
Frame rate                               : 93.750 fps (512 spf)
Bit depth                                : 24 bits
Compression mode                         : Lossy
Stream size                              : 1.26 GiB (14%)
Language                                 : English
Default                                  : Yes
Forced                                   : No




       

本帖子中包含更多资源

您需要 登录 才可以下载或查看,没有帐号?立即注册  

x

发表回复

您需要登录后才可以回帖 登录 | 立即注册  

本版积分规则

无觅相关文章插件

快速回复 返回顶部 返回列表