返回列表 发新帖

[BD-Rip] [BT下载]魔鬼小提琴家帕格尼尼 The.Devils.Violinist.2013.1080p.BluRay.x264.DTS-FGT 9.5G

[复制链接]

发表在  2016-8-4 19:12:01 | 显示全部楼层 | 阅读模式
-->
◎译  名 魔鬼小提琴家帕格尼尼
◎片  名 Der Teufelsgeiger
◎年  代 2013
◎国  家 德国/意大利
◎类  别 剧情/音乐
◎语  言 英语
◎上映日期 2013-11-07(德国)
◎IMDb评分  6.1/10 from 2,178 users
◎IMDb链接  http://www.imdb.com/title/tt2401715/
◎豆瓣评分 6.7/10 from 780 users
◎豆瓣链接 https://movie.douban.com/subject/11528266/
◎BT之家整理 http://www.btbbt.cc
◎片  长 122分钟
◎导  演 Bernard Rose
◎主  演 大卫·葛瑞特 David Garrett


◎简  介


  1830年,小提琴演奏家花花公子尼科洛帕格尼尼(大卫·加勒特)是在他职业生涯的巅峰,在整个欧洲的赞誉。他独自顾名思义无数的事务和丑闻-这正是他的经理人乌尔巴尼(贾里德哈里斯)做他的全力培养。因为这是他的兴趣向市场推出其著名的客户的最好的方式,只有伦敦市民尚未被征服。在一个以吸引帕格尼尼到伦敦为他的英国首演计划中,英国经纪人约翰·沃森(基督教麦凯)和他的情妇伊丽莎白·韦尔斯(维罗尼卡Ferres)顶着所有风险请帕格尼尼到英国演出。业务娴熟的乌尔巴尼最终设法把帕格尼尼到英国首都。由于混乱。帕格尼尼他们被迫投靠在沃森的家,在那里帕格尼尼迅速采取喜欢上主人的...


Video
ID                                       : 1
Format                                   : AVC
Format/Info                              : Advanced Video Codec
Format profile                           : High@L4.1
Format settings, CABAC                   : Yes
Format settings, ReFrames                : 5 frames
Codec ID                                 : V_MPEG4/ISO/AVC
Duration                                 : 2h 2mn
Bit rate                                 : 9 390 Kbps
Width                                    : 1 920 pixels
Height                                   : 816 pixels
Display aspect ratio                     : 2.35:1
Frame rate mode                          : Constant
Frame rate                               : 24.000 fps
Color space                              : YUV
Chroma subsampling                       : 4:2:0
Bit depth                                : 8 bits
Scan type                                : Progressive
Bits/(Pixel*Frame)                       : 0.250
Stream size                              : 8.04 GiB (84%)
Language                                 : English
Default                                  : Yes
Forced                                   : No

Audio
ID                                       : 2
Format                                   : DTS
Format/Info                              : Digital Theater Systems
Mode                                     : 16
Format settings, Endianness              : Big
Codec ID                                 : A_DTS
Duration                                 : 2h 2mn
Bit rate mode                            : Constant
Bit rate                                 : 1 509 Kbps
Channel(s)                               : 6 channels
Channel positions                        : Front: L C R, Side: L R, LFE
Sampling rate                            : 48.0 KHz
Frame rate                               : 93.750 fps (512 spf)
Bit depth                                : 24 bits
Compression mode                         : Lossy
Stream size                              : 1.29 GiB (14%)
Language                                 : English
Default                                  : Yes
Forced                                   : No

Menu
00:00:00.000                             : en:00:00:00.000
00:11:39.417                             : en:00:11:39.417
00:21:05.625                             : en:00:21:05.625
00:30:51.917                             : en:00:30:51.917
00:41:13.292                             : en:00:41:13.292
00:51:46.792                             : en:00:51:46.792
01:03:02.500                             : en:01:03:02.500
01:13:38.250                             : en:01:13:38.250
01:25:15.583                             : en:01:25:15.583
01:35:52.667                             : en:01:35:52.667
01:45:50.708                             : en:01:45:50.708
01:55:37.250                             : en:01:55:37.250





       

本帖子中包含更多资源

您需要 登录 才可以下载或查看,没有帐号?立即注册  

x

发表回复

您需要登录后才可以回帖 登录 | 立即注册  

本版积分规则

无觅相关文章插件

快速回复 返回顶部 返回列表