返回列表 发新帖

[BD-Rip] [BT下载]红楼惊魂/脂粉猫王 Jailhouse.Rock.1957.1080p.BluRay.x264-CLASSiC 7.94G

[复制链接]

发表在  2016-8-4 19:38:22 | 显示全部楼层 | 阅读模式

马上注册,结交更多好友,享用更多功能,让你轻松玩转社区。

您需要 登录 才可以下载或查看,没有帐号?立即注册  

x
-->
◎译  名 红楼惊魂/脂粉猫王/流转的歌声/监狱摇滚
◎片  名 Jailhouse Rock
◎年  代 1957
◎国  家 美国
◎类  别 犯罪/剧情/音乐/歌舞/爱情
◎语  言 英语
◎上映日期 1957-11-08
◎IMDb评分  6.5/10 from 5,921 users
◎IMDb链接  http://www.imdb.com/title/tt0050556/
◎豆瓣评分 7.2/10 from 62 users
◎豆瓣链接 https://movie.douban.com/subject/1297224/
◎BT之家整理 http://www.btbbt.cc
◎片  长 96 分钟
◎导  演 理查德·索普 Richard Thorpe
◎主  演 猫王 Elvis Presley
      朱迪·泰勒 Judy Tyler
      米基·肖夫尼西 Mickey Shaughnessy
      沃恩·泰勒 Vaughn Taylor
      Jennifer Holden
      迪恩·琼斯 Dean Jones
      Anne Neyland


◎简  介


  Vince Everett服过失杀人的一年的监禁。 当在大房子里,他的单人房间,一个前乡村歌手,介绍他给记录事务时。 Everett那么很好采取对它他决定成为歌手,当他出去时。 然而,他由记录事务迅速幻灭。但是在一个新的朋友帮助下,他决定形成他自己的标签和很快成为隔夜感觉。 但是他何时成为超级明星,他的名望的欲望和金钱将造成他忘记到他那儿的人民?


Video
ID                                       : 1
Format                                   : AVC
Format/Info                              : Advanced Video Codec
Format profile                           : High@L4.1
Format settings, CABAC                   : Yes
Format settings, ReFrames                : 5 frames
Codec ID                                 : V_MPEG4/ISO/AVC
Duration                                 : 1h 36mn
Bit rate                                 : 11.1 Mbps
Width                                    : 1 920 pixels
Height                                   : 800 pixels
Display aspect ratio                     : 2.40:1
Frame rate mode                          : Constant
Frame rate                               : 23.976 fps
Color space                              : YUV
Chroma subsampling                       : 4:2:0
Bit depth                                : 8 bits
Scan type                                : Progressive
Bits/(Pixel*Frame)                       : 0.302
Stream size                              : 7.35 GiB (93%)
Writing library                          : x264 core 67 r1163 3f56e27
Encoding settings                        : cabac=1 / ref=5 / deblock=1:0:0 / analyse=0x3:0x133 / me=umh / subme=7 / psy_rd=1.0:0.0 / mixed_ref=1 / me_range=16 / chroma_me=1 / trellis=1 / 8x8dct=1 / cqm=0 / deadzone=21,11 / chroma_qp_offset=-2 / threads=6 / nr=0 / decimate=1 / mbaff=0 / bframes=3 / b_pyramid=1 / b_adapt=1 / b_bias=0 / direct=1 / wpredb=1 / keyint=250 / keyint_min=25 / scenecut=40 / rc=2pass / bitrate=11126 / ratetol=1.0 / qcomp=0.60 / qpmin=10 / qpmax=51 / qpstep=4 / cplxblur=20.0 / qblur=0.5 / ip_ratio=1.40 / pb_ratio=1.30 / aq=1:1.00
Language                                 : English
Default                                  : Yes
Forced                                   : No

Audio
ID                                       : 2
Format                                   : AC-3
Format/Info                              : Audio Coding 3
Mode extension                           : CM (complete main)
Format settings, Endianness              : Big
Codec ID                                 : A_AC3
Duration                                 : 1h 36mn
Bit rate mode                            : Constant
Bit rate                                 : 640 Kbps
Channel(s)                               : 6 channels
Channel positions                        : Front: L C R, Side: L R, LFE
Sampling rate                            : 48.0 KHz
Frame rate                               : 31.250 fps (1536 spf)
Compression mode                         : Lossy
Stream size                              : 442 MiB (5%)
Language                                 : English
Default                                  : Yes
Forced                                   : No

Text
ID                                       : 3
Format                                   : UTF-8
Codec ID                                 : S_TEXT/UTF8
Codec ID/Info                            : UTF-8 Plain Text
Language                                 : English
Default                                  : Yes
Forced                                   : No







Jailhouse.Rock.1957.1080p.BluRay.x264-CLASSiC[btbbt.cc].torrent

发表回复

您需要登录后才可以回帖 登录 | 立即注册  

本版积分规则

无觅相关文章插件

快速回复 返回顶部 返回列表