返回列表 发新帖

[ReMux] [BT下载]神奇面团 Dough.2015.1080p.BluRay.REMUX.AVC.DD5.1-RARBG 13.32G

[复制链接]

发表在  2016-8-4 18:05:30 | 显示全部楼层 | 阅读模式
-->
◎译  名 神奇面团
◎片  名 Dough
◎年  代 2015
◎国  家 英国/匈牙利
◎类  别 剧情
◎IMDb评分  6.2/10 from 277 users
◎IMDb链接  http://www.imdb.com/title/tt1517471/
◎BT之家整理 http://www.btbbt.cc
◎导  演 John Goldschmidt
◎主  演 乔纳森·普雷斯 Jonathan Pryce
      梅尔维·卢克巴 Merveille Lukeba


◎简  介


  An old Jewish baker struggles to keep his business afloat until his young Muslim apprentice drops cannabis in the dough and sends sales sky high.


Video
ID                                       : 1
Format                                   : AVC
Format/Info                              : Advanced Video Codec
Format profile                           : High@L4.1
Format settings, CABAC                   : Yes
Format settings, ReFrames                : 4 frames
Codec ID                                 : V_MPEG4/ISO/AVC
Duration                                 : 1h 34mn
Bit rate mode                            : Variable
Bit rate                                 : 18.5 Mbps
Maximum bit rate                         : 35.0 Mbps
Width                                    : 1 920 pixels
Height                                   : 1 080 pixels
Display aspect ratio                     : 16:9
Frame rate mode                          : Constant
Frame rate                               : 23.976 (24000/1001) fps
Standard                                 : NTSC
Color space                              : YUV
Chroma subsampling                       : 4:2:0
Bit depth                                : 8 bits
Scan type                                : Progressive
Bits/(Pixel*Frame)                       : 0.372
Stream size                              : 12.2 GiB (92%)
Title                                    : Dough.2015.1080p.BluRay.REMUX.AVC.DD5.1-RARBG
Language                                 : English
Default                                  : No
Forced                                   : No
Color range                              : Limited
Color primaries                          : BT.709
Transfer characteristics                 : BT.709
Matrix coefficients                      : BT.709

Audio #1
ID                                       : 2
Format                                   : AC-3
Format/Info                              : Audio Coding 3
Mode extension                           : CM (complete main)
Format settings, Endianness              : Big
Codec ID                                 : A_AC3
Duration                                 : 1h 34mn
Bit rate mode                            : Constant
Bit rate                                 : 640 Kbps
Channel(s)                               : 6 channels
Channel positions                        : Front: L C R, Side: L R, LFE
Sampling rate                            : 48.0 KHz
Frame rate                               : 31.250 fps (1536 spf)
Compression mode                         : Lossy
Stream size                              : 433 MiB (3%)
Title                                    : Dough.2015.1080p.BluRay.REMUX.AVC.DD5.1-RARBG
Language                                 : English
Default                                  : Yes
Forced                                   : No

Audio #2
ID                                       : 3
Format                                   : AC-3
Format/Info                              : Audio Coding 3
Mode extension                           : CM (complete main)
Format settings, Endianness              : Big
Codec ID                                 : A_AC3
Duration                                 : 1h 34mn
Bit rate mode                            : Constant
Bit rate                                 : 640 Kbps
Channel(s)                               : 2 channels
Channel positions                        : Front: L R
Sampling rate                            : 48.0 KHz
Frame rate                               : 31.250 fps (1536 spf)
Compression mode                         : Lossy
Stream size                              : 433 MiB (3%)
Title                                    : Dough.2015.1080p.BluRay.REMUX.AVC.DD5.1-RARBG
Language                                 : English
Default                                  : No
Forced                                   : No

Text #1
ID                                       : 4
Format                                   : PGS
Muxing mode                              : zlib
Codec ID                                 : S_HDMV/PGS
Codec ID/Info                            : Picture based subtitle format used on BDs/HD-DVDs
Title                                    : English-PGS
Language                                 : English
Default                                  : No
Forced                                   : No

Text #2
ID                                       : 5
Format                                   : PGS
Muxing mode                              : zlib
Codec ID                                 : S_HDMV/PGS
Codec ID/Info                            : Picture based subtitle format used on BDs/HD-DVDs
Title                                    : French-PGS
Language                                 : French
Default                                  : No
Forced                                   : No

Text #3
ID                                       : 6
Format                                   : PGS
Muxing mode                              : zlib
Codec ID                                 : S_HDMV/PGS
Codec ID/Info                            : Picture based subtitle format used on BDs/HD-DVDs
Title                                    : Spanish-PGS
Language                                 : Spanish
Default                                  : No
Forced                                   : No

Menu
00:00:00.000                             : en:Chapter 01
00:12:13.524                             : en:Chapter 02
00:33:58.161                             : en:Chapter 03
00:55:56.853                             : en:Chapter 04
01:16:15.946                             : en:Chapter 05
01:31:02.373                             : en:Chapter 06






       

本帖子中包含更多资源

您需要 登录 才可以下载或查看,没有帐号?立即注册  

x

发表回复

您需要登录后才可以回帖 登录 | 立即注册  

本版积分规则

无觅相关文章插件

快速回复 返回顶部 返回列表