返回列表 发新帖

[BD-Rip] [BT下载]黑夜五哩行 Five.Miles.to.Midnight.1962.1080p.BluRay.x264.DTS-FGT 9.83G

[复制链接]

发表在  2016-8-4 20:47:21 | 显示全部楼层 | 阅读模式
-->
◎译  名 黑夜五哩行/午夜谋杀案
◎片  名 Le couteau dans la plaie
◎年  代 1962
◎国  家 法国/意大利
◎类  别 犯罪/剧情
◎语  言 英语
◎上映日期 1962-12-12
◎IMDb评分  6.4/10 from 612 users
◎IMDb链接  http://www.imdb.com/title/tt0056957/
◎BT之家整理 http://www.btbbt.cc
◎片  长 USA: 110 分钟/Argentina: 112 分钟/UK: 103 分钟/West Germany: 109 分钟
◎导  演 安纳托尔·李维克 Anatole Litvak
◎主  演 索菲娅·罗兰 Sophia Loren
      安东尼·博金斯 Anthony Perkins
      吉格·杨 Gig Young


◎简  介


  Lisa Macklin| an Italian woman| has a fight with her American husband Robert in a Paris night club. He leaves the next day for a business trip and Lisa says she does
not want to see him again. She is with newspaperman Alan Stewart that evening when she learns Robert's plane has crashed with no survivors. Waking from sedation
after the funeral| Lisa finds Robert in their flat| injured but alive. He was thrown clear of the crash by a lucky twist of fate. He now plans to collect the
$120|000 insurance he took out at the airport. Once Lisa collects the money and turns it over to him| she will finally be rid of him. She attempts to get advice from
Stewart| but he has been replaced by David Barnes. Lisa's life becomes a tortuous ordeal| at work| at home| faced with a fugitive husband and a growing love for
David| who suspects everything. Finally her nightmare concludes when she finally gets the check and meets Robert. As they drive to the Belgian border| he reveals he
never intended giving ...


Video
ID                                       : 1
Format                                   : AVC
Format/Info                              : Advanced Video Codec
Format profile                           : High@L4.1
Format settings, CABAC                   : Yes
Format settings, ReFrames                : 4 frames
Codec ID                                 : V_MPEG4/ISO/AVC
Duration                                 : 1h 48mn
Bit rate                                 : 11.5 Mbps
Width                                    : 1 804 pixels
Height                                   : 1 080 pixels
Display aspect ratio                     : 5:3
Frame rate mode                          : Constant
Frame rate                               : 23.976 (24000/1001) fps
Color space                              : YUV
Chroma subsampling                       : 4:2:0
Bit depth                                : 8 bits
Scan type                                : Progressive
Bits/(Pixel*Frame)                       : 0.246
Stream size                              : 8.49 GiB (86%)
Writing library                          : x264 core 148 r2694 3b70645
Encoding settings                        : cabac=1 / ref=4 / deblock=1:-2:-2 / analyse=0x3:0x113 / me=umh / subme=7 / psy=1 / psy_rd=1.00:0.15 / mixed_ref=1 / me_range=16 / chroma_me=1 / trellis=1 / 8x8dct=1 / cqm=0 / deadzone=21,11 / fast_pskip=1 / chroma_qp_offset=-3 / threads=40 / lookahead_threads=3 / sliced_threads=0 / nr=0 / decimate=1 / interlaced=0 / bluray_compat=0 / constrained_intra=0 / bframes=3 / b_pyramid=2 / b_adapt=2 / b_bias=0 / direct=3 / weightb=1 / open_gop=0 / weightp=2 / keyint=250 / keyint_min=25 / scenecut=40 / intra_refresh=0 / rc_lookahead=50 / rc=abr / mbtree=1 / bitrate=11500 / ratetol=1.0 / qcomp=0.60 / qpmin=0 / qpmax=69 / qpstep=4 / vbv_maxrate=31250 / vbv_bufsize=31250 / nal_hrd=none / filler=0 / ip_ratio=1.40 / aq=1:1.00
Language                                 : English
Default                                  : Yes
Forced                                   : No

Audio
ID                                       : 2
Format                                   : DTS
Format/Info                              : Digital Theater Systems
Mode                                     : 16
Format settings, Endianness              : Big
Codec ID                                 : A_DTS
Duration                                 : 1h 48mn
Bit rate mode                            : Constant
Bit rate                                 : 1 509 Kbps
Channel(s)                               : 2 channels
Channel positions                        : Front: L R
Sampling rate                            : 48.0 KHz
Frame rate                               : 93.750 fps (512 spf)
Bit depth                                : 16 bits
Compression mode                         : Lossy
Stream size                              : 1.14 GiB (12%)
Language                                 : English
Default                                  : Yes
Forced                                   : No

Menu
00:00:00.000                             : en:Chapter 00
00:11:04.163                             : en:Chapter 01
00:25:29.986                             : en:Chapter 02
00:45:23.721                             : en:Chapter 03
01:01:17.131                             : en:Chapter 04
01:14:11.280                             : en:Chapter 05
01:23:59.492                             : en:Chapter 06
01:34:37.672                             : en:Chapter 07





       

本帖子中包含更多资源

您需要 登录 才可以下载或查看,没有帐号?立即注册  

x

发表回复

您需要登录后才可以回帖 登录 | 立即注册  

本版积分规则

无觅相关文章插件

快速回复 返回顶部 返回列表