返回列表 发新帖

[BD-Rip] [BT下载]恶搞之家:星球大战帝国反击战 2009.1080p.BluRay.x264.DTS-FGT 2.03G

[复制链接]

发表在  2016-8-4 19:50:22 | 显示全部楼层 | 阅读模式
-->


◎译  名 盖酷家庭:星际大战大反击/恶搞之家:星球大战帝国反击战
◎片  名 "Family Guy" Something, Something, Something Dark Side
◎年  代 2009
◎国  家 美国
◎类  别 动画/喜剧
◎语  言 英语
◎IMDB评分 7.8/10 (366 votes)
◎IMDB链接 http://www.imdb.com/title/tt1329665/
◎片  长 54 mins
◎导  演 Dominic Polcino
◎主  演 H. Jon Benjamin ... Carl as Yoda (voice)
      Alex Borstein ... Lois Griffin as Princess Leia
      John G. Brennan ... Mort Goldman as Lando Calrissian
      D.C. Douglas ... Imperial Guard #3 (voice)
      Seth Green ... Chris Griffin as Luke Skywalker
      Mike Henry ... Cleveland Brown as R2-D2
      Seth MacFarlane ... Peter Griffin as Han Solo
      Danny Smith ... Ernie the Giant Chicken as Boba Fett
      Patrick Warburton ... Joe Swanson as Imperial Probe Droid
      James Woods ... (voice)
      
     
◎简  介 
  【盖酷家庭】将在2009年12月22日推出电影版《Family Guy: Something, Something, Something, Dark Side》,这部名字很长、很搞笑的电影将恶搞著名的《星际大战》(Star Wars),模仿当年《帝国大反击》(The Empire Strikes Back),这部动画片将由20世纪福克斯公司家庭娱乐公司发行,并不会在影院上映,而是直接发行DVD和蓝光影碟,并同步登陆iTunes。
幕后制作
  【盖酷家庭】是全美当红的喜剧动画影集,不但是艾美奖常胜军,更曾获青少年票选为最爱影集,配合时事冷嘲热讽、腥膻色百无禁忌的动画风格,成为最受欢迎的热门影集。
  盖酷家庭由葛瑞芬一家六个怪咖组成,爸爸彼特是无所事事又自以为是的肥佬,妈妈洛伊丝在贤慧的外表下有着一颗荡妇的心,姐姐梅姬是全校最不受欢迎的怪胎,哥哥克利斯是个脑残的乖孩子,而弟弟史杜伊则是操着英国腔满脑子坏主意的婴儿,家中的宠物布莱恩是一只聪明到会讲话、开车但却有酗酒问题的小狗。
  上回一家六口发挥最擅长的恶搞手段,化身世纪大作【星际大战-第四部曲曙光乍现】的要角,决心搞了个星际大混战,誓言让星战迷惊声尖笑。


Video
ID                                       : 1
Format                                   : AVC
Format/Info                              : Advanced Video Codec
Format profile                           : High@L4.1
Format settings, CABAC                   : Yes
Format settings, ReFrames                : 4 frames
Codec ID                                 : V_MPEG4/ISO/AVC
Duration                                 : 54mn 43s
Bit rate                                 : 3 687 Kbps
Width                                    : 1 436 pixels
Height                                   : 1 080 pixels
Display aspect ratio                     : 4:3
Frame rate mode                          : Constant
Frame rate                               : 23.976 (24000/1001) fps
Color space                              : YUV
Chroma subsampling                       : 4:2:0
Bit depth                                : 8 bits
Scan type                                : Progressive
Bits/(Pixel*Frame)                       : 0.099
Stream size                              : 1.41 GiB (70%)
Writing library                          : x264 core 148 r2694 3b70645
Encoding settings                        : cabac=1 / ref=4 / deblock=1:-3:-3 / analyse=0x3:0x133 / me=umh / subme=10 / psy=1 / psy_rd=0.70:0.00 / mixed_ref=1 / me_range=48 / chroma_me=1 / trellis=2 / 8x8dct=1 / cqm=0 / deadzone=21,11 / fast_pskip=0 / chroma_qp_offset=-2 / threads=12 / lookahead_threads=3 / sliced_threads=0 / nr=0 / decimate=0 / interlaced=0 / bluray_compat=0 / constrained_intra=0 / bframes=10 / b_pyramid=2 / b_adapt=2 / b_bias=0 / direct=3 / weightb=1 / open_gop=0 / weightp=2 / keyint=250 / keyint_min=23 / scenecut=40 / intra_refresh=0 / rc_lookahead=60 / rc=crf / mbtree=0 / crf=16.0 / qcomp=0.65 / qpmin=0 / qpmax=69 / qpstep=4 / vbv_maxrate=62500 / vbv_bufsize=78125 / crf_max=0.0 / nal_hrd=none / filler=0 / ip_ratio=1.40 / pb_ratio=1.30 / aq=1:0.90
Language                                 : English
Default                                  : Yes
Forced                                   : No

Audio
ID                                       : 2
Format                                   : DTS
Format/Info                              : Digital Theater Systems
Mode                                     : 16
Format settings, Endianness              : Big
Codec ID                                 : A_DTS
Duration                                 : 54mn 43s
Bit rate mode                            : Constant
Bit rate                                 : 1 509 Kbps
Channel(s)                               : 6 channels
Channel positions                        : Front: L C R, Side: L R, LFE
Sampling rate                            : 48.0 KHz
Frame rate                               : 93.750 fps (512 spf)
Bit depth                                : 24 bits
Compression mode                         : Lossy
Stream size                              : 591 MiB (28%)
Language                                 : English
Default                                  : Yes
Forced                                   : No

Menu
00:00:00.000                             : en:Chapter 01
00:02:25.478                             : en:Chapter 02
00:05:21.321                             : en:Chapter 03
00:09:31.904                             : en:Chapter 04
00:13:27.014                             : en:Chapter 05
00:18:48.961                             : en:Chapter 06
00:23:21.191                             : en:Chapter 07
00:26:35.552                             : en:Chapter 08
00:30:16.689                             : en:Chapter 09
00:37:31.457                             : en:Chapter 10
00:44:26.622                             : en:Chapter 11
00:52:58.300                             : en:Chapter 12





       

本帖子中包含更多资源

您需要 登录 才可以下载或查看,没有帐号?立即注册  

x

发表回复

您需要登录后才可以回帖 登录 | 立即注册  

本版积分规则

无觅相关文章插件

快速回复 返回顶部 返回列表