返回列表 发新帖

[BD-Rip] [BT下载]搞怪一家人:是个陷阱 Family.Guy.Its.a.Trap.2010.1080p.BluRay.x264.DTS-FGT 2.2G

[复制链接]

发表在  2016-8-4 20:28:03 | 显示全部楼层 | 阅读模式
-->
◎译  名 搞怪一家人:是个陷阱
◎片  名 Family Guy Presents: It's a Trap
◎年  代 2010
◎国  家 美国
◎类  别 喜剧/科幻/动画
◎语  言 英语
◎上映日期 2010-12-21
◎IMDb评分  7.3/10 from 8,385 users
◎IMDb链接  http://www.imdb.com/title/tt1701991/
◎豆瓣评分 7.6/10 from 331 users
◎豆瓣链接 https://movie.douban.com/subject/5381241/
◎BT之家整理 http://www.btbbt.cc
◎片  长 56分钟
◎导  演 Peter Shin


◎简  介


  本剧是全美当红的喜剧动画影集,不但是艾美奖常胜军,更曾获青少年票选为最爱影集,配合时事冷嘲热讽、腥羶色百无禁忌的动画风格,成为最受欢迎的热门影集。盖酷家庭由葛瑞芬一家六个怪咖组成,爸爸彼特是无所事事又自以为是的肥佬,妈妈洛伊丝在贤慧的外表下有著一颗荡妇的心,姐姐梅姬是全校最不受欢迎的怪胎,哥哥克利斯是个脑残的乖孩子,而弟弟史杜伊则是操著英国腔满脑子坏主意的婴儿,家中的宠物布莱恩是一隻聪明到会讲话、开车但却有酗酒问题的小狗。


Video
ID                                       : 1
Format                                   : AVC
Format/Info                              : Advanced Video Codec
Format profile                           : High@L4.1
Format settings, CABAC                   : Yes
Format settings, ReFrames                : 4 frames
Codec ID                                 : V_MPEG4/ISO/AVC
Duration                                 : 56mn 35s
Bit rate                                 : 3 975 Kbps
Width                                    : 1 920 pixels
Height                                   : 1 080 pixels
Display aspect ratio                     : 16:9
Frame rate mode                          : Constant
Frame rate                               : 23.976 (24000/1001) fps
Color space                              : YUV
Chroma subsampling                       : 4:2:0
Bit depth                                : 8 bits
Scan type                                : Progressive
Bits/(Pixel*Frame)                       : 0.080
Stream size                              : 1.57 GiB (71%)
Writing library                          : x264 core 148 r2694 3b70645
Encoding settings                        : cabac=1 / ref=4 / deblock=1:-3:-3 / analyse=0x3:0x133 / me=umh / subme=10 / psy=1 / psy_rd=0.70:0.00 / mixed_ref=1 / me_range=48 / chroma_me=1 / trellis=2 / 8x8dct=1 / cqm=0 / deadzone=21,11 / fast_pskip=0 / chroma_qp_offset=-2 / threads=12 / lookahead_threads=3 / sliced_threads=0 / nr=0 / decimate=0 / interlaced=0 / bluray_compat=0 / constrained_intra=0 / bframes=10 / b_pyramid=2 / b_adapt=2 / b_bias=0 / direct=3 / weightb=1 / open_gop=0 / weightp=2 / keyint=250 / keyint_min=23 / scenecut=40 / intra_refresh=0 / rc_lookahead=60 / rc=crf / mbtree=0 / crf=16.0 / qcomp=0.65 / qpmin=0 / qpmax=69 / qpstep=4 / vbv_maxrate=62500 / vbv_bufsize=78125 / crf_max=0.0 / nal_hrd=none / filler=0 / ip_ratio=1.40 / pb_ratio=1.30 / aq=1:0.90
Language                                 : English
Default                                  : Yes
Forced                                   : No

Audio
ID                                       : 2
Format                                   : DTS
Format/Info                              : Digital Theater Systems
Mode                                     : 16
Format settings, Endianness              : Big
Codec ID                                 : A_DTS
Duration                                 : 56mn 35s
Bit rate mode                            : Constant
Bit rate                                 : 1 509 Kbps
Channel(s)                               : 6 channels
Channel positions                        : Front: L C R, Side: L R, LFE
Sampling rate                            : 48.0 KHz
Frame rate                               : 93.750 fps (512 spf)
Bit depth                                : 24 bits
Compression mode                         : Lossy
Stream size                              : 611 MiB (27%)
Language                                 : English
Default                                  : Yes
Forced                                   : No

Menu
00:00:00.000                             : en:Chapter 01
00:02:27.147                             : en:Chapter 02
00:04:52.500                             : en:Chapter 03
00:10:44.310                             : en:Chapter 04
00:15:40.648                             : en:Chapter 05
00:24:41.480                             : en:Chapter 06
00:32:05.173                             : en:Chapter 07
00:38:51.370                             : en:Chapter 08
00:47:04.530                             : en:Chapter 09
00:55:27.282                             : en:Chapter 10






       

本帖子中包含更多资源

您需要 登录 才可以下载或查看,没有帐号?立即注册  

x

发表于 2016-8-11 12:25:08 | 显示全部楼层
观摩一下,感谢共享

发表回复

您需要登录后才可以回帖 登录 | 立即注册  

本版积分规则

无觅相关文章插件

快速回复 返回顶部 返回列表