返回列表 发新帖

[BD-Rip] [BT下载]恶搞之家 Family.Guy.Blue.Harvest.2007.1080p.BluRay.x264.DTS-FGT 1.96G

[复制链接]

发表在  2016-8-4 19:42:55 | 显示全部楼层 | 阅读模式
-->


◎译  名 恶搞之家  
◎片  名 Family.Guy.Blue.Harves
◎年  代 2007
◎国  家 美国
◎类  别 喜剧/动画
◎语  言 英语
◎上映日期 2007-09-23(美国)
◎IMDb评分  8.3/10 from 5,349 users
◎IMDb链接  http://www.imdb.com/title/tt0888817/
◎豆瓣评分 8.7/10 from 548 users
◎豆瓣链接 https://movie.douban.com/subject/4265305/
◎片  长 22分钟
◎导  演 塞思·麦克法兰 Seth MacFarlane
◎主  演 塞思·麦克法兰 Seth MacFarlane
      艾利克斯·布诺斯町 Alex Borstein


◎简  介


  彼得总是傻傻的可爱说着他的家庭: 他的妻子是一个沉溺于宝贝儿子的调皮的乐趣之中, 每天她都在设想怎么去控制她那一岁的儿子, 一岁等等布赖恩天生就是一个捣蛋鬼, 他会想出很多办法做出让他父母生气惊讶的事情, 还有一只会要热狗的狗狗组成了这样一个荒谬的家庭喜剧!




Video
ID                                       : 1
Format                                   : AVC
Format/Info                              : Advanced Video Codec
Format profile                           : High@L4.1
Format settings, CABAC                   : Yes
Format settings, ReFrames                : 5 frames
Codec ID                                 : V_MPEG4/ISO/AVC
Duration                                 : 47mn 36s
Bit rate                                 : 4 281 Kbps
Width                                    : 1 438 pixels
Height                                   : 1 080 pixels
Display aspect ratio                     : 4:3
Frame rate mode                          : Constant
Frame rate                               : 23.976 (24000/1001) fps
Color space                              : YUV
Chroma subsampling                       : 4:2:0
Bit depth                                : 8 bits
Scan type                                : Progressive
Bits/(Pixel*Frame)                       : 0.115
Stream size                              : 1.42 GiB (72%)
Writing library                          : x264 core 148 r2694 3b70645
Encoding settings                        : cabac=1 / ref=5 / deblock=1:-3:-3 / analyse=0x3:0x133 / me=umh / subme=10 / psy=1 / psy_rd=0.70:0.00 / mixed_ref=1 / me_range=48 / chroma_me=1 / trellis=2 / 8x8dct=1 / cqm=0 / deadzone=21,11 / fast_pskip=0 / chroma_qp_offset=-2 / threads=12 / lookahead_threads=3 / sliced_threads=0 / nr=0 / decimate=0 / interlaced=0 / bluray_compat=0 / constrained_intra=0 / bframes=10 / b_pyramid=2 / b_adapt=2 / b_bias=0 / direct=3 / weightb=1 / open_gop=0 / weightp=2 / keyint=250 / keyint_min=23 / scenecut=40 / intra_refresh=0 / rc_lookahead=60 / rc=crf / mbtree=0 / crf=16.0 / qcomp=0.65 / qpmin=0 / qpmax=69 / qpstep=4 / vbv_maxrate=62500 / vbv_bufsize=78125 / crf_max=0.0 / nal_hrd=none / filler=0 / ip_ratio=1.40 / pb_ratio=1.30 / aq=1:0.90
Language                                 : English
Default                                  : Yes
Forced                                   : No

Audio
ID                                       : 2
Format                                   : DTS
Format/Info                              : Digital Theater Systems
Mode                                     : 16
Format settings, Endianness              : Big
Codec ID                                 : A_DTS
Duration                                 : 47mn 36s
Bit rate mode                            : Constant
Bit rate                                 : 1 509 Kbps
Channel(s)                               : 6 channels
Channel positions                        : Front: L C R, Side: L R, LFE
Sampling rate                            : 48.0 KHz
Frame rate                               : 93.750 fps (512 spf)
Bit depth                                : 24 bits
Compression mode                         : Lossy
Stream size                              : 514 MiB (26%)
Language                                 : English
Default                                  : Yes
Forced                                   : No

Menu
00:00:00.000                             : en:Chapter 01
00:05:41.716                             : en:Chapter 02
00:09:19.475                             : en:Chapter 03
00:14:01.048                             : en:Chapter 04
00:21:34.209                             : en:Chapter 05
00:27:06.958                             : en:Chapter 06
00:32:56.474                             : en:Chapter 07
00:38:09.203                             : en:Chapter 08
00:43:39.366                             : en:Chapter 09
00:46:41.548                             : en:Chapter 10





       

本帖子中包含更多资源

您需要 登录 才可以下载或查看,没有帐号?立即注册  

x

发表回复

您需要登录后才可以回帖 登录 | 立即注册  

本版积分规则

无觅相关文章插件

快速回复 返回顶部 返回列表