返回列表 发新帖

[BD-Rip] [BT下载]鬼玩人2/尸变 2 Evil.Dead.II.1987.1080p.BluRay.x264.DTS-FGT 11.88G

[复制链接]

发表在  2016-8-4 19:35:04 | 显示全部楼层 | 阅读模式
-->
◎译  名 鬼玩人2/尸变 2
◎片  名 Evil Dead II
◎年  代 1987
◎国  家 美国
◎类  别 喜剧/恐怖
◎语  言 英语
◎上映日期 1987-03-13
◎IMDb评分  7.8/10 from 113,197 users
◎IMDb链接  http://www.imdb.com/title/tt0092991/
◎豆瓣评分 7.2/10 from 4,574 users
◎豆瓣链接 https://movie.douban.com/subject/1293448/
◎BT之家整理 http://www.btbbt.cc
◎片  长 84 分钟/Sweden: 70 分钟(video version)
◎导  演 山姆·雷米 Sam Raimi
◎主  演 布鲁斯·坎贝尔  Bruce Campbell
      Sarah Berry
      Dan Hicks
      Kassie DePaiva


◎简  介


  青年艾许(布鲁斯·坎贝尔 Bruce Campbell 饰)开车载着女友琳达(丹尼丝·比克斯勒 Denise Bixler 饰)外出游玩,途中他们因故落脚于一间无人居住的林中木屋。艾许在书房内发现一本书和录音设备,其间记录了古代史教授诺比(约翰·皮克斯 John Peakes 饰)造访康达城堡并发现失踪长达上千年的《死者之书》的全过程。当录音带中教授念起召唤邪灵的咒语时,似乎沉睡已久的恶魔就此苏醒。琳达遭到攻击后化身恶魔,艾许被迫杀死女友自己也无法避免被侵蚀的命运。当他从昏迷中醒来后,意识到自己已被邪灵困入绝地,无法逃开。
  夜幕降临,魔鬼的狂欢拉开帷幕,艾许的难忘之夜就此开始……



Video
ID                                       : 1
Format                                   : AVC
Format/Info                              : Advanced Video Codec
Format profile                           : High@L4.1
Format settings, CABAC                   : Yes
Format settings, ReFrames                : 4 frames
Codec ID                                 : V_MPEG4/ISO/AVC
Duration                                 : 1h 24mn
Bit rate                                 : 18.3 Mbps
Width                                    : 1 920 pixels
Height                                   : 1 040 pixels
Display aspect ratio                     : 1.85:1
Frame rate mode                          : Constant
Frame rate                               : 23.976 (24000/1001) fps
Color space                              : YUV
Chroma subsampling                       : 4:2:0
Bit depth                                : 8 bits
Scan type                                : Progressive
Bits/(Pixel*Frame)                       : 0.382
Stream size                              : 10.8 GiB (91%)
Writing library                          : x264 core 142 r2431+42 c69a006 tMod [8-bit@4:2:0 X86_64]
Encoding settings                        : cabac=1 / ref=4 / deblock=1:-2:-2 / analyse=0x3:0x133 / me=umh / subme=11 / psy=1 / fade_compensate=0.00 / psy_rd=1.00:0.00 / mixed_ref=1 / me_range=32 / chroma_me=1 / trellis=2 / 8x8dct=1 / cqm=0 / deadzone=21,11 / fast_pskip=1 / chroma_qp_offset=-2 / threads=12 / lookahead_threads=2 / sliced_threads=0 / nr=0 / decimate=1 / interlaced=0 / bluray_compat=0 / constrained_intra=0 / fgo=0 / bframes=8 / b_pyramid=2 / b_adapt=2 / b_bias=0 / direct=1 / weightb=1 / open_gop=0 / weightp=2 / keyint=250 / keyint_min=23 / scenecut=40 / intra_refresh=0 / rc_lookahead=60 / rc=crf / mbtree=0 / crf=18.0000 / qcomp=0.70 / qpmin=0:0:0 / qpmax=69:69:69 / qpstep=4 / vbv_maxrate=62500 / vbv_bufsize=78125 / crf_max=0.0 / nal_hrd=none / filler=0 / ip_ratio=1.40 / pb_ratio=1.30 / aq=1:0.80 / aq-sensitivity=10.00 / aq-factor=1.00:1.00:1.00 / aq2=0 / aq3=0
Language                                 : English
Default                                  : Yes
Forced                                   : No
Color range                              : Limited
Color primaries                          : BT.709
Transfer characteristics                 : BT.709
Matrix coefficients                      : BT.709

Audio
ID                                       : 2
Format                                   : DTS
Format/Info                              : Digital Theater Systems
Mode                                     : 16
Format settings, Endianness              : Big
Codec ID                                 : A_DTS
Duration                                 : 1h 24mn
Bit rate mode                            : Constant
Bit rate                                 : 1 509 Kbps
Channel(s)                               : 6 channels
Channel positions                        : Front: L C R, Side: L R, LFE
Sampling rate                            : 48.0 KHz
Frame rate                               : 93.750 fps (512 spf)
Bit depth                                : 24 bits
Compression mode                         : Lossy
Stream size                              : 910 MiB (7%)
Language                                 : English
Default                                  : Yes
Forced                                   : No

Text
ID                                       : 3
Format                                   : UTF-8
Codec ID                                 : S_TEXT/UTF8
Codec ID/Info                            : UTF-8 Plain Text
Language                                 : English
Default                                  : No
Forced                                   : No

Menu
00:00:00.000                             : enrogram Start/the Book
00:01:57.242                             : en:Raising Hell
00:05:25.325                             : enossessed
00:06:39.232                             : en:The Ride
00:10:37.595                             : en:No Escape
00:17:24.084                             : enanse Macabre
00:20:19.635                             : en:The Tool Shed
00:22:36.229                             : en:Off His Rocker
00:28:20.824                             : en:Hell Hand
00:34:05.043                             : en:Laughing Stock
00:35:36.551                             : en:Blood Simple
00:40:10.366                             : en:Henrietta
00:42:29.171                             : enead By Dawn
00:46:21.779                             : en:Things From Beyond
00:51:59.157                             : en:The Woods
00:53:39.007                             : enages of Prophecy
00:58:41.434                             : en:Ash, the Demon
01:06:21.268                             : en:Battle Gear
01:07:24.040                             : en:The Cellar
01:11:36.000                             : en:Showdown
01:14:19.955                             : en:The Evil Summoned
01:16:38.510                             : en:The Rift
01:18:56.606                             : en:Hero From the Sky
01:20:55.851                             : en:End Credits





       

本帖子中包含更多资源

您需要 登录 才可以下载或查看,没有帐号?立即注册  

x

发表回复

您需要登录后才可以回帖 登录 | 立即注册  

本版积分规则

无觅相关文章插件

快速回复 返回顶部 返回列表