返回列表 发新帖

[上下格式] [BT下载]猎神:冬日之战[3D上下]2016.1080p.3D.BluRay.Half-OU.x264.DTS-HD.MA.7.1-RARBG 26.9G

[复制链接]

发表在  2016-8-4 22:16:31 | 显示全部楼层 | 阅读模式

马上注册,结交更多好友,享用更多功能,让你轻松玩转社区。

您需要 登录 才可以下载或查看,没有帐号?立即注册  

x
-->
自带中字

◎译  名 猎神:冬日之战/獵神:魔雪叛變(香港)/狩猎者:凛冬之战(台)/猎人:冬之战/猎人:冬日之战/白雪公主与猎人2
◎片  名 The Huntsman: Winter's War
◎年  代 2016
◎国  家 美国
◎类  别 剧情/动作/奇幻/冒险
◎语  言 英语
◎上映日期 2016-04-22(中国大陆/美国)
◎IMDb评分  6.1/10 from 35,018 users
◎IMDb链接  http://www.imdb.com/title/tt2381991/
◎豆瓣评分 5.4/10 from 13,840 users
◎豆瓣链接 https://movie.douban.com/subject/10791575/
◎BT之家整理 http://www.btbbt.cc
◎片  长 114分钟
◎导  演 塞德里克·萨科 Cedric Nicolas-Troyan
◎主  演 克里斯·海姆斯沃斯 Chris Hemsworth
      查理兹·塞隆 Charlize Theron
      艾米莉·布朗特 Emily Blunt
      杰西卡·查斯坦 Jessica Chastain
      尼克·弗罗斯特 Nick Frost
      山姆·克拉弗林 Sam Claflin
      罗伯·布莱顿 Rob Brydon
      科林·摩根 Colin Morgan
      索菲·库克森 Sophie Cookson
      谢里丹·史密斯 Sheridan Smith
      亚历山德拉·罗奇 Alexandra Roach


◎简  介


  冰雪女王弗雷亚(艾米莉·布朗特 Emily Blunt 饰)本性温柔善良,却因为痛失爱女的绝望而变得残暴和疯狂,她和邪恶的姐姐瑞文娜(查理兹·塞隆 Charlize Theron 饰)一起建立了寒冷彻骨的冰雪王国,利用冷酷和无情的规则维持她们的统治,更立下了不许相爱的规矩,违者将要受到可怕的惩罚。
  猎神埃里克(克里斯·海姆斯沃斯 Chris Hemsworth 饰)遇见了勇士莎拉(杰西卡·查斯坦 Jessica Chastain 饰),两人不可自持的坠入了爱河,触犯了大忌。为了能够和所爱之人双宿双飞,埃里克和莎拉决定联手推翻两位女王的暴政。这小小的反叛逐渐壮大变为了两个阵营的对抗,当得知女儿死亡的真相之后,冰雪女王弗雷迪会做出怎样的选择呢?




Video
ID                                       : 1
Format                                   : AVC
Format/Info                              : Advanced Video Codec
Format profile                           : High@L4.1
Format settings, CABAC                   : Yes
Format settings, ReFrames                : 2 frames
Codec ID                                 : V_MPEG4/ISO/AVC
Duration                                 : 1h 53mn
Nominal bit rate                         : 16.0 Mbps
Width                                    : 1 920 pixels
Height                                   : 1 080 pixels
Display aspect ratio                     : 16:9
Frame rate mode                          : Constant
Frame rate                               : 23.976 (24000/1001) fps
Color space                              : YUV
Chroma subsampling                       : 4:2:0
Bit depth                                : 8 bits
Scan type                                : Progressive
Bits/(Pixel*Frame)                       : 0.322
Title                                    : The.Huntsman.Winters.War.2016.1080p.3D.BluRay.Half-OU.x264.DTS-HD.MA.7.1-RARBG
Writing library                          : x264 core 142
Encoding settings                        : cabac=1 / ref=1 / deblock=1:-1:-1 / analyse=0x3:0 / me=hex / subme=5 / psy=0 / mixed_ref=0 / me_range=16 / chroma_me=1 / trellis=0 / 8x8dct=1 / cqm=0 / deadzone=21,11 / fast_pskip=0 / chroma_qp_offset=0 / threads=8 / lookahead_threads=2 / sliced_threads=0 / nr=0 / decimate=1 / interlaced=0 / bluray_compat=0 / constrained_intra=0 / bframes=2 / b_pyramid=0 / b_adapt=1 / b_bias=0 / direct=1 / weightb=0 / open_gop=0 / weightp=0 / keyint=24 / keyint_min=13 / scenecut=40 / intra_refresh=0 / rc=abr / mbtree=0 / bitrate=16000 / ratetol=1.0 / qcomp=0.60 / qpmin=0 / qpmax=69 / qpstep=4 / ip_ratio=1.40 / pb_ratio=1.30 / aq=1:1.00
Default                                  : Yes
Forced                                   : No
Color range                              : Limited
Color primaries                          : BT.709
Transfer characteristics                 : BT.709
Matrix coefficients                      : BT.709


Audio #1
ID                                       : 2
Format                                   : DTS
Format/Info                              : Digital Theater Systems
Format profile                           : X / MA / Core
Mode                                     : 16
Format settings, Endianness              : Big
Codec ID                                 : A_DTS
Bit rate mode                            : Variable / Variable / Constant
Bit rate                                 : Unknown / Unknown / 1 509 Kbps
Channel(s)                               : Object Based / 8 channels / 6 channels
Channel positions                        : Object Based / Front: L C R, Side: L R, Back: L R, LFE / Front: L C R, Side: L R, LFE
Sampling rate                            :  / 48.0 KHz / 48.0 KHz
Frame rate                               : 93.750 fps (512 spf)
Bit depth                                :  / 24 bits / 24 bits
Compression mode                         :  / Lossless / Lossy
Title                                    : The.Huntsman.Winters.War.2016.1080p.3D.BluRay.Half-OU.x264.DTS-HD.MA.7.1-RARBG
Language                                 : English
Default                                  : Yes
Forced                                   : No


Audio #2
ID                                       : 3
Format                                   : DTS
Format/Info                              : Digital Theater Systems
Mode                                     : 16
Format settings, Endianness              : Big
Codec ID                                 : A_DTS
Duration                                 : 1h 53mn
Bit rate mode                            : Constant
Bit rate                                 : 1 509 Kbps
Channel(s)                               : 6 channels
Channel positions                        : Front: L C R, Side: L R, LFE
Sampling rate                            : 48.0 KHz
Frame rate                               : 93.750 fps (512 spf)
Bit depth                                : 24 bits
Compression mode                         : Lossy
Stream size                              : 1.20 GiB (4%)
Title                                    : The.Huntsman.Winters.War.2016.1080p.3D.BluRay.Half-OU.x264.DTS-HD.MA.7.1-RARBG
Language                                 : English
Default                                  : No
Forced                                   : No


Audio #3
ID                                       : 4
Format                                   : DTS
Format/Info                              : Digital Theater Systems
Mode                                     : 16
Format settings, Endianness              : Big
Codec ID                                 : A_DTS
Duration                                 : 1h 53mn
Bit rate mode                            : Constant
Bit rate                                 : 384 Kbps
Channel(s)                               : 2 channels
Channel positions                        : Front: L R
Sampling rate                            : 48.0 KHz
Frame rate                               : 93.750 fps (512 spf)
Bit depth                                : 24 bits
Compression mode                         : Lossy
Stream size                              : 313 MiB (1%)
Title                                    : The.Huntsman.Winters.War.2016.1080p.3D.BluRay.Half-OU.x264.DTS-HD.MA.7.1-RARBG
Language                                 : English
Default                                  : No
Forced                                   : No


Audio #4
ID                                       : 5
Format                                   : DTS
Format/Info                              : Digital Theater Systems
Format profile                           : HRA / Core
Mode                                     : 16
Format settings, Endianness              : Big
Codec ID                                 : A_DTS
Duration                                 : 1h 53mn
Bit rate mode                            : Constant
Bit rate                                 : 2 046 Kbps / 1 509 Kbps
Channel(s)                               : 8 channels / 6 channels
Channel positions                        : Front: L C R, Side: L R, Back: L R, LFE / Front: L C R, Side: L R, LFE
Sampling rate                            : 48.0 KHz
Frame rate                               : 93.750 fps (512 spf)
Bit depth                                : 24 bits
Compression mode                         : Lossy
Stream size                              : 1.63 GiB (6%)
Title                                    : The.Huntsman.Winters.War.2016.1080p.3D.BluRay.Half-OU.x264.DTS-HD.MA.7.1-RARBG
Language                                 : Portuguese
Default                                  : No
Forced                                   : No


Audio #5
ID                                       : 6
Format                                   : DTS
Format/Info                              : Digital Theater Systems
Mode                                     : 16
Format settings, Endianness              : Big
Codec ID                                 : A_DTS
Duration                                 : 1h 53mn
Bit rate mode                            : Constant
Bit rate                                 : 1 509 Kbps
Channel(s)                               : 6 channels
Channel positions                        : Front: L C R, Side: L R, LFE
Sampling rate                            : 48.0 KHz
Frame rate                               : 93.750 fps (512 spf)
Bit depth                                : 24 bits
Compression mode                         : Lossy
Stream size                              : 1.20 GiB (4%)
Title                                    : The.Huntsman.Winters.War.2016.1080p.3D.BluRay.Half-OU.x264.DTS-HD.MA.7.1-RARBG
Language                                 : Portuguese
Default                                  : No
Forced                                   : No


Audio #6
ID                                       : 7
Format                                   : DTS
Format/Info                              : Digital Theater Systems
Format profile                           : HRA / Core
Mode                                     : 16
Format settings, Endianness              : Big
Codec ID                                 : A_DTS
Duration                                 : 1h 53mn
Bit rate mode                            : Constant
Bit rate                                 : 2 046 Kbps / 1 509 Kbps
Channel(s)                               : 8 channels / 6 channels
Channel positions                        : Front: L C R, Side: L R, Back: L R, LFE / Front: L C R, Side: L R, LFE
Sampling rate                            : 48.0 KHz
Frame rate                               : 93.750 fps (512 spf)
Bit depth                                : 24 bits
Compression mode                         : Lossy
Stream size                              : 1.63 GiB (6%)
Title                                    : The.Huntsman.Winters.War.2016.1080p.3D.BluRay.Half-OU.x264.DTS-HD.MA.7.1-RARBG
Language                                 : Czech
Default                                  : No
Forced                                   : No


Audio #7
ID                                       : 8
Format                                   : DTS
Format/Info                              : Digital Theater Systems
Mode                                     : 16
Format settings, Endianness              : Big
Codec ID                                 : A_DTS
Duration                                 : 1h 53mn
Bit rate mode                            : Constant
Bit rate                                 : 1 509 Kbps
Channel(s)                               : 6 channels
Channel positions                        : Front: L C R, Side: L R, LFE
Sampling rate                            : 48.0 KHz
Frame rate                               : 93.750 fps (512 spf)
Bit depth                                : 24 bits
Compression mode                         : Lossy
Stream size                              : 1.20 GiB (4%)
Title                                    : The.Huntsman.Winters.War.2016.1080p.3D.BluRay.Half-OU.x264.DTS-HD.MA.7.1-RARBG
Language                                 : Czech
Default                                  : No
Forced                                   : No


Audio #8
ID                                       : 9
Format                                   : DTS
Format/Info                              : Digital Theater Systems
Mode                                     : 16
Format settings, Endianness              : Big
Codec ID                                 : A_DTS
Duration                                 : 1h 53mn
Bit rate mode                            : Constant
Bit rate                                 : 768 Kbps
Channel(s)                               : 6 channels
Channel positions                        : Front: L C R, Side: L R, LFE
Sampling rate                            : 48.0 KHz
Frame rate                               : 93.750 fps (512 spf)
Bit depth                                : 24 bits
Compression mode                         : Lossy
Stream size                              : 626 MiB (2%)
Title                                    : The.Huntsman.Winters.War.2016.1080p.3D.BluRay.Half-OU.x264.DTS-HD.MA.7.1-RARBG
Language                                 : Hungarian
Default                                  : No
Forced                                   : No


Audio #9
ID                                       : 10
Format                                   : DTS
Format/Info                              : Digital Theater Systems
Format profile                           : HRA / Core
Mode                                     : 16
Format settings, Endianness              : Big
Codec ID                                 : A_DTS
Duration                                 : 1h 53mn
Bit rate mode                            : Constant
Bit rate                                 : 2 046 Kbps / 1 509 Kbps
Channel(s)                               : 8 channels / 6 channels
Channel positions                        : Front: L C R, Side: L R, Back: L R, LFE / Front: L C R, Side: L R, LFE
Sampling rate                            : 48.0 KHz
Frame rate                               : 93.750 fps (512 spf)
Bit depth                                : 24 bits
Compression mode                         : Lossy
Stream size                              : 1.63 GiB (6%)
Title                                    : The.Huntsman.Winters.War.2016.1080p.3D.BluRay.Half-OU.x264.DTS-HD.MA.7.1-RARBG
Language                                 : Spanish
Default                                  : No
Forced                                   : No


Audio #10
ID                                       : 11
Format                                   : DTS
Format/Info                              : Digital Theater Systems
Mode                                     : 16
Format settings, Endianness              : Big
Codec ID                                 : A_DTS
Duration                                 : 1h 53mn
Bit rate mode                            : Constant
Bit rate                                 : 1 509 Kbps
Channel(s)                               : 6 channels
Channel positions                        : Front: L C R, Side: L R, LFE
Sampling rate                            : 48.0 KHz
Frame rate                               : 93.750 fps (512 spf)
Bit depth                                : 24 bits
Compression mode                         : Lossy
Stream size                              : 1.20 GiB (4%)
Title                                    : The.Huntsman.Winters.War.2016.1080p.3D.BluRay.Half-OU.x264.DTS-HD.MA.7.1-RARBG
Language                                 : Spanish
Default                                  : No
Forced                                   : No


Audio #11
ID                                       : 12
Format                                   : DTS
Format/Info                              : Digital Theater Systems
Mode                                     : 16
Format settings, Endianness              : Big
Codec ID                                 : A_DTS
Duration                                 : 1h 53mn
Bit rate mode                            : Constant
Bit rate                                 : 768 Kbps
Channel(s)                               : 6 channels
Channel positions                        : Front: L C R, Side: L R, LFE
Sampling rate                            : 48.0 KHz
Frame rate                               : 93.750 fps (512 spf)
Bit depth                                : 24 bits
Compression mode                         : Lossy
Stream size                              : 626 MiB (2%)
Title                                    : The.Huntsman.Winters.War.2016.1080p.3D.BluRay.Half-OU.x264.DTS-HD.MA.7.1-RARBG
Language                                 : Thai
Default                                  : No
Forced                                   : No


Text #1
ID                                       : 13
Format                                   : PGS
Muxing mode                              : zlib
Codec ID                                 : S_HDMV/PGS
Codec ID/Info                            : Picture based subtitle format used on BDs/HD-DVDs
Title                                    : English-PGS
Language                                 : English
Default                                  : No
Forced                                   : No


Text #2
ID                                       : 14
Format                                   : PGS
Muxing mode                              : zlib
Codec ID                                 : S_HDMV/PGS
Codec ID/Info                            : Picture based subtitle format used on BDs/HD-DVDs
Title                                    : Portuguese-PGS
Language                                 : Portuguese
Default                                  : No
Forced                                   : No


Text #3
ID                                       : 15
Format                                   : PGS
Muxing mode                              : zlib
Codec ID                                 : S_HDMV/PGS
Codec ID/Info                            : Picture based subtitle format used on BDs/HD-DVDs
Title                                    : Czech-PGS
Language                                 : Czech
Default                                  : No
Forced                                   : No


Text #4
ID                                       : 16
Format                                   : PGS
Muxing mode                              : zlib
Codec ID                                 : S_HDMV/PGS
Codec ID/Info                            : Picture based subtitle format used on BDs/HD-DVDs
Title                                    : Hungarian-PGS
Language                                 : Hungarian
Default                                  : No
Forced                                   : No


Text #5
ID                                       : 17
Format                                   : PGS
Muxing mode                              : zlib
Codec ID                                 : S_HDMV/PGS
Codec ID/Info                            : Picture based subtitle format used on BDs/HD-DVDs
Title                                    : Spanish-PGS
Language                                 : Spanish
Default                                  : No
Forced                                   : No


Text #6
ID                                       : 18
Format                                   : PGS
Muxing mode                              : zlib
Codec ID                                 : S_HDMV/PGS
Codec ID/Info                            : Picture based subtitle format used on BDs/HD-DVDs
Title                                    : Thai-PGS
Language                                 : Thai
Default                                  : No
Forced                                   : No


Text #7
ID                                       : 19
Format                                   : PGS
Muxing mode                              : zlib
Codec ID                                 : S_HDMV/PGS
Codec ID/Info                            : Picture based subtitle format used on BDs/HD-DVDs
Title                                    : Bulgarian-PGS
Language                                 : Bulgarian
Default                                  : No
Forced                                   : No


Text #8
ID                                       : 20
Format                                   : PGS
Muxing mode                              : zlib
Codec ID                                 : S_HDMV/PGS
Codec ID/Info                            : Picture based subtitle format used on BDs/HD-DVDs
Title                                    : Chinese-PGS
Language                                 : Chinese
Default                                  : No
Forced                                   : No


Text #9
ID                                       : 21
Format                                   : PGS
Muxing mode                              : zlib
Codec ID                                 : S_HDMV/PGS
Codec ID/Info                            : Picture based subtitle format used on BDs/HD-DVDs
Title                                    : Chinese-PGS
Language                                 : Chinese
Default                                  : No
Forced                                   : No


Text #10
ID                                       : 22
Format                                   : PGS
Muxing mode                              : zlib
Codec ID                                 : S_HDMV/PGS
Codec ID/Info                            : Picture based subtitle format used on BDs/HD-DVDs
Title                                    : Croatian-PGS
Language                                 : Croatian
Default                                  : No
Forced                                   : No


Text #11
ID                                       : 23
Format                                   : PGS
Muxing mode                              : zlib
Codec ID                                 : S_HDMV/PGS
Codec ID/Info                            : Picture based subtitle format used on BDs/HD-DVDs
Title                                    : Greek-PGS
Language                                 : Greek
Default                                  : No
Forced                                   : No


Text #12
ID                                       : 24
Format                                   : PGS
Muxing mode                              : zlib
Codec ID                                 : S_HDMV/PGS
Codec ID/Info                            : Picture based subtitle format used on BDs/HD-DVDs
Title                                    : Hebrew-PGS
Language                                 : Hebrew
Default                                  : No
Forced                                   : No


Text #13
ID                                       : 25
Format                                   : PGS
Muxing mode                              : zlib
Codec ID                                 : S_HDMV/PGS
Codec ID/Info                            : Picture based subtitle format used on BDs/HD-DVDs
Title                                    : Korean-PGS
Language                                 : Korean
Default                                  : No
Forced                                   : No


Text #14
ID                                       : 26
Format                                   : PGS
Muxing mode                              : zlib
Codec ID                                 : S_HDMV/PGS
Codec ID/Info                            : Picture based subtitle format used on BDs/HD-DVDs
Title                                    : Romanian-PGS
Language                                 : Romanian
Default                                  : No
Forced                                   : No


Text #15
ID                                       : 27
Format                                   : PGS
Muxing mode                              : zlib
Codec ID                                 : S_HDMV/PGS
Codec ID/Info                            : Picture based subtitle format used on BDs/HD-DVDs
Title                                    : Chinese-PGS
Language                                 : Chinese
Default                                  : No
Forced                                   : No


Text #16
ID                                       : 28
Format                                   : PGS
Muxing mode                              : zlib
Codec ID                                 : S_HDMV/PGS
Codec ID/Info                            : Picture based subtitle format used on BDs/HD-DVDs
Title                                    : Slovenian-PGS
Language                                 : Slovenian
Default                                  : No
Forced                                   : No


Menu
00:00:00.000                             : en01)00:00:00:000
00:06:26.427                             : en02)00:06:26:427
00:09:26.857                             : en03)00:09:26:857
00:15:03.193                             : en04)00:15:03:193
00:21:33.500                             : en05)00:21:33:500
00:26:52.235                             : en06)00:26:52:235
00:32:34.744                             : en07)00:32:34:744
00:36:51.167                             : en000:36:51:167
00:42:17.952                             : en09)00:42:17:952
00:47:27.261                             : en10)00:47:27:261
00:54:37.816                             : en11)00:54:37:816
00:59:26.229                             : en12)00:59:26:229
01:06:18.975                             : en13)01:06:18:975
01:10:21.508                             : en14)01:10:21:508
01:17:45.118                             : en15)01:17:45:118
01:23:17.492                             : en16)01:23:17:492
01:28:06.864                             : en17)01:28:06:864
01:33:28.811                             : en101:33:28:811
01:42:20.759                             : en19)01:42:20:759
01:44:26.426                             : en20)01:44:26:426
01:53:57.247                             : en21)01:53:57:247


<p>
<a href="http://imagecurl.com/viewer.php?pold=11465690109322476550.png" target="_blank" style="color:rgb(56, 96, 187); font-weight:700; font-family:none; font-size:10px; line-height:14px; text-align:justify; background-color:rgb(255, 255, 255);">

发表于 2016-8-21 21:50:04 | 显示全部楼层
没有看到种子?

发表回复

您需要登录后才可以回帖 登录 | 立即注册  

本版积分规则

无觅相关文章插件

快速回复 返回顶部 返回列表